Dance of the Vampires (1967)[BRRip 1080p x264 by alE13 AC3][Lektor i Napisy PL][Eng]


    Seeders : 0      Leechers : 0




Note :

Please Update (Trackers Info) Before Start "Dance of the Vampires (1967)[BRRip 1080p x264 by alE13 AC3][Lektor i Napisy PL][Eng]" Torrent Downloading to See Updated Seeders And Leechers for Batter Torrent Download Speed.

Trackers List

Tracker NameLast CheckStatusSeedersLeechers



Torrent File Content (15 files)


Dance of the Vampires (1967)-alE13
    info
          Cover.jpg -
347.22 KB

          1.jpg -
253.17 KB

          Nostalgie11.jpg -
185.84 KB

          Torrent Downloaded From devil-torrents.txt -
61 bytes

          Torrent downloaded from demonoid.pw.txt -
46 bytes

          Torrent Downloaded From immortaltorrent.txt -
44 bytes

          Torrent Downloaded From ex-torrents-org.txt -
44 bytes

          Torrent Downloaded From super-torrent.txt -
42 bytes

          Torrent Downloaded From 1337x.to.txt -
32 bytes

          Torrent Downloaded From bitnova.info.txt -
19 bytes

    Subtitles
          Dance of the Vampires (1967)-alE13.rar -
38.19 KB

     Dance of the Vampires (1967)-alE13.mkv -
7.68 GB

     Sample.mkv -
43.08 MB

     poster.jpg -
118.5 KB

     txt.jpg -
111.86 KB



Description



Movies : Comedy : HD 1080p / 1080i : English
Loading... (function(){ var D=new Date(),d=document,b='body',ce='createElement',ac='appendChild',st='style',ds='display',n='none',gi='getElementById'; var i=d[ce]('iframe');i[st][ds]=n;d[gi]("M244525ScriptRootC122102")[ac](i);try{var iw=i.contentWindow.document;iw.open();iw.writeln("");iw.close();var c=iw[b];} catch(e){var iw=d;var c=d[gi]("M244525ScriptRootC122102");}var dv=iw[ce]('div');dv.id="MG_ID";dv[st][ds]=n;dv.innerHTML=122102;c[ac](dv); var s=iw[ce]('script');s.async='async';s.defer='defer';s.charset='utf-8';s.src="//jsc.adskeeper.co.uk/d/e/demonoid.pw.122102.js?t="+D.getYear()+D.getMonth()+D.getDate()+D.getHours();c[ac](s);})();


http://www.imdb.com/title/tt0061655/
http://www.filmweb.pl/film/Nieustraszeni+pogromcy+wampir%C3%B3w-1967-8118

Plik zawiera Sample.

reżyseria: Roman Polański
scenariusz: Roman Polański,Gérard Brach
gatunek: Horror,Komedia
produkcja: USA,Wielka Brytania
premiera: 17-11-1967
muzyka: Krzysztof Komeda
zdjęcia: Douglas Slocombe
czas: 1h 43min

opis:

A noted professor and his dim-witted apprentice fall prey to their inquiring vampires,
while on the trail of the ominous damsel in distress.

Groteskowa opowieść o parze śmiałków polujących na wampiry w śniegach Transylwanii.
Ekscentryczny profesor Abronsius to niestrudzony badacz i znawca wampirów, a jego młody
asystent Alfred pomaga mu w poszukiwaniach. W filmie niemało jest scen pozornie wywołujących
strach, mających przerażać, ale przerysowanie zarówno bohaterów jak i wątków wywołuje
zamierzone rozbawienie i podkreśla w ten sposób pastiszowo-groteskowy charakter filmu.






obsada:

Jack MacGowran, Roman Polanski, Alfie Bass, Sharon Tate

dane techniczne:

Dance of the Vampires (1967)-alE13.mkv
Format : Matroska
Format version : Version 4 / Version 2
File size : 7.68 GiB
Duration : 1 h 43 min
Overall bit rate mode : Variable
Overall bit rate : 10.7 Mb/s
Movie name : Dance of the Vampires (1967)-alE13
Encoded date : UTC 2017-09-11 03:46:43
Writing application : mkvmerge v8.1.0 ('Psychedelic Postcard') 64bit
Writing library : libebml v1.3.1 + libmatroska v1.4.2
Cover : Yes
Attachments : Cover.jpg

Video
ID : 1
Format : AVC
Format/Info : Advanced Video Codec
Format profile : [email protected]
Format settings, CABAC : Yes
Format settings, RefFrames : 3 frames
Codec ID : V_MPEG4/ISO/AVC
Duration : 1 h 43 min
Bit rate mode : Variable
Bit rate : 10.2 Mb/s
Maximum bit rate : 20.0 Mb/s
Width : 1 920 pixels
Height : 792 pixels
Display aspect ratio : 2.40:1
Frame rate mode : Constant
Frame rate : 25.000 FPS
Standard : PAL
Color space : YUV
Chroma subsampling : 4:2:0
Bit depth : 8 bits
Scan type : Progressive
Bits/(Pixel*Frame) : 0.269
Stream size : 7.35 GiB (96%)
Title : Dance of the Vampires (1967)-alE13
Default : Yes
Forced : No
Color range : Limited
Color primaries : BT.709
Transfer characteristics : BT.709
Matrix coefficients : BT.709

Audio #1
ID : 2
Format : AC-3
Format/Info : Audio Coding 3
Format settings, Endianness : Big
Codec ID : A_AC3
Duration : 1 h 43 min
Bit rate mode : Constant
Bit rate : 192 kb/s
Channel(s) : 2 channels
Channel positions : Front: L R
Sampling rate : 48.0 kHz
Frame rate : 31.250 FPS (1536 SPF)
Bit depth : 16 bits
Compression mode : Lossy
Stream size : 142 MiB (2%)
Title : Dance of the Vampires (1967)-alE13_AC3
Language : English
Service kind : Complete Main
Default : No
Forced : No

Audio #2
ID : 3
Format : AC-3
Format/Info : Audio Coding 3
Format settings, Endianness : Big
Codec ID : A_AC3
Duration : 1 h 43 min
Bit rate mode : Constant
Bit rate : 256 kb/s
Channel(s) : 2 channels
Channel positions : Front: L R
Sampling rate : 48.0 kHz
Frame rate : 31.250 FPS (1536 SPF)
Bit depth : 16 bits
Compression mode : Lossy
Delay relative to video : 6 ms
Stream size : 189 MiB (2%)
Title : Dance of the Vampires (1967)-alE13_AC3
Language : Polish
Service kind : Complete Main
Default : Yes
Forced : No

Text #1
ID : 4
Format : UTF-8
Codec ID : S_TEXT/UTF8
Codec ID/Info : UTF-8 Plain Text
Duration : 1 h 41 min
Bit rate : 29 b/s
Count of elements : 716
Stream size : 21.9 KiB (0%)
Title : Dance of the Vampires (1967)-alE13
Language : Polish
Default : No
Forced : No

Text #2
ID : 5
Format : UTF-8
Codec ID : S_TEXT/UTF8
Codec ID/Info : UTF-8 Plain Text
Duration : 1 h 39 min
Bit rate : 30 b/s
Count of elements : 670
Stream size : 22.2 KiB (0%)
Title : Dance of the Vampires (1967)-alE13
Language : English
Default : No
Forced : No

Menu
00:00:00.000 : en:Chapter 1
00:02:16.840 : en:Chapter 2
00:05:34.040 : en:Chapter 3
00:09:28.520 : en:Chapter 4
00:13:00.160 : en:Chapter 5
00:19:25.119 : en:Chapter 6
00:21:45.760 : en:Chapter 7
00:26:13.400 : en:Chapter 8
00:29:21.920 : en:Chapter 9
00:34:33.199 : en:Chapter 10
00:39:20.760 : en:Chapter 11
00:43:31.160 : en:Chapter 12
00:48:46.840 : en:Chapter 13
00:53:27.160 : en:Chapter 14
00:58:18.720 : en:Chapter 15
01:01:54.560 : en:Chapter 16
01:06:57.480 : en:Chapter 17
01:10:34.479 : en:Chapter 18
01:14:34.320 : en:Chapter 19
01:19:11.800 : en:Chapter 20
01:24:53.399 : en:Chapter 21
01:27:19.439 : en:Chapter 22
01:29:09.680 : en:Chapter 23
01:32:55.800 : en:Chapter 24
01:36:49.960 : en:Chapter 25
01:40:42.960 : en:Chapter 26
Show Demonoid some love with BitCoin: 1DNoid2VRyfYn9T38Z1SZ5XncG7WMgCeUL How to get BitCoin?

Facebook Twitter Google Digg Reddit LinkedIn StumbleUpon Email

Related torrents

Torrent NameAddedSizeSeedLeechHealth
1 Year+ - in Movies8.18 GB00
1 Year+ - in Movies7.93 GB00
1 Year+ - in Movies7.95 GB20
1 Year+ - in Movies8.78 GB66
1 Year+ - in Movies7.89 GB77

Note :

Feel free to post any comments about this torrent, including links to Subtitle, samples, screenshots, or any other relevant information. Watch Dance of the Vampires (1967)[BRRip 1080p x264 by alE13 AC3][Lektor i Napisy PL][Eng] Full Movie Online Free, Like 123Movies, FMovies, Putlocker, Netflix or Direct Download Torrent Dance of the Vampires (1967)[BRRip 1080p x264 by alE13 AC3][Lektor i Napisy PL][Eng] via Magnet Download Link.

Comments (0 Comments)




Please login or create a FREE account to post comments

People Searches