Rampage (2018) [720p BluRay x265] [SharkRG]


    Seeders : 0      Leechers : 0

Hash :AD8E40C4E7F3532408F55A3EB196920B9E91D876
Added :9 days ago by SharkRG in Movies
Size :607.58 MB
Stream :Watch Movie Online @ Movie4u
Share :


Rampage (2018) [720p BluRay x265] [SharkRG]
Use a VPN to make yourself hidden while downloading torrents.







Before you download or do Anything online: PLEASE Protect your Online Privacy.
Your IP Address is 54.226.64.30.   And Location is United States, Ashburn
Your Internet Service Provider and Government can track your torrent Activity!  Hide your IP ADDRESS with a VPN!
We Strongly Recommend Using Best Cheapest VPN to Anonymize your Torrenting.

Note :

Please Update (Trackers Info) Before Start Torrents Downloading to See Updated Seeders And Leechers for Batter Download Speed.

Trackers List

Tracker NameLast CheckStatusSeedersLeechers
http://mgtracker.org:6969/announce9 days agosuccess00
http://tracker.pirateparty.gr:6969/9 days agosuccess00
http://nyaa.tracker.wf:7777/announce9 days agosuccess00
http://asnet.pw:2710/announce9 days agosuccess00
http://public.popcorn-tracker.org:6969/9 days agosuccess00
http://tracker.opentrackr.org:1337/9 days agosuccess00
http://tracker.zer0day.to:1337/announce9 days agosuccess00
http://tracker.leechers-paradise.org:6969/9 days agosuccess00
http://www.opentrackr.org/announce9 days agosuccess00
http://tracker.openbittorrent.com/announce9 days agosuccess00
http://tracker.piratepublic.com:1337/announce9 days agosuccess00
http://p4p.arenabg.ch:1337/announce9 days agosuccess00
http://eddie4.nl:6969/announce9 days agosuccess00
http://9.rarbg.com:2710/announce9 days agosuccess00
http://tracker.coppersurfer.tk:6969/announce9 days agosuccess00
http://tracker.leechers-paradise.org:6969/announce9 days agosuccess00
http://tracker.publicbt.com/announce9 days agosuccess00



Torrent File Content (24 files)


Rampage (2018) [720p BluRay x265] [SharkRG]
    Posters
          Poster_5.jpg -
763.14 KB

          Poster_4.jpg -
587.22 KB

          Poster_3.jpg -
476.54 KB

          Poster_2.jpg -
459.49 KB

          Poster_1.jpg -
382.55 KB

          Poster_6.jpg -
318.9 KB

    Subtitles
          Bengali.srt -
136.81 KB

          Malay.srt -
133.27 KB

          Indonesian.srt -
130.54 KB

          Persian.srt -
116.26 KB

          English.srt -
108.75 KB

          Vietnamese.srt -
89.96 KB

          Spanish.srt -
87.85 KB

          Thai.srt -
84.52 KB

          Swedish.srt -
83.69 KB

          French.srt -
78.05 KB

          Chinese.srt -
77.4 KB

          Romanian.srt -
74.91 KB

          Arabic.srt -
73.29 KB

          Norwegian.srt -
68.84 KB

          Danish.srt -
67.27 KB

          Dutch.srt -
63.62 KB

     Rampage.2018.720p.BluRay.AAC-[SharkRG].mp4 -
603.21 MB

     Info.nfo -
9.12 KB



Description



--
[h2]Note: You have to use a x265 Player. (VLC, KMPlayer)[/h2]

General
Complete name : Rampage.2018.720p.BluRay.AAC-[SharkRG].mp4
Format : MPEG-4
Format profile : Base Media / Version 2
Codec ID : mp42 (isom/iso2/mp41)
File size : 603 MiB
Duration : 1 h 47 min
Overall bit rate mode : Variable
Overall bit rate : 786 kb/s
Encoded date : UTC 2018-12-28 23:45:02
Tagged date : UTC 2018-12-28 23:45:02
Writing application : HandBrake 1.1.2 2018090500

Video
ID : 1
Format : HEVC
Format/Info : High Efficiency Video Coding
Format profile : Main [email protected]@Main
Codec ID : hvc1
Codec ID/Info : High Efficiency Video Coding
Duration : 1 h 47 min
Bit rate : 651 kb/s
Width : 1 280 pixels
Height : 532 pixels
Display aspect ratio : 2.40:1
Original display aspect rat : 2.40:1
Frame rate mode : Constant
Frame rate : 30.000 FPS
Color space : YUV
Chroma subsampling : 4:2:0
Bit depth : 10 bits
Bits/(Pixel*Frame) : 0.032
Stream size : 500 MiB (83%)
Writing library : x265 2.6:[Windows][GCC 7.3.0][64 bit] 10bit
Encoding settings : cpuid=1173503 / frame-threads=4 / numa-pools=12,12 / wpp / no-pmode / no-pme / no-psnr / no-ssim / log-level=2 / input-csp=1 / input-res=1280x532 / interlace=0 / total-frames=0 / level-idc=0 / high-tier=1 / uhd-bd=0 / ref=4 / no-allow-non-conformance / no-repeat-headers / annexb / no-aud / no-hrd / info / hash=0 / no-temporal-layers / open-gop / min-keyint=30 / keyint=300 / bframes=8 / b-adapt=2 / b-pyramid / bframe-bias=0 / rc-lookahead=30 / lookahead-slices=0 / scenecut=40 / no-intra-refresh / ctu=64 / min-cu-size=8 / no-rect / no-amp / max-tu-size=32 / tu-inter-depth=2 / tu-intra-depth=2 / limit-tu=4 / rdoq-level=2 / dynamic-rd=0.00 / no-ssim-rd / signhide / no-tskip / nr-intra=0 / nr-inter=0 / no-constrained-intra / no-strong-intra-smoothing / max-merge=3 / limit-refs=2 / limit-modes / me=3 / subme=3 / merange=57 / temporal-mvp / weightp / weightb / no-analyze-src-pics / deblock=0:0 / sao / no-sao-non-deblock / rd=6 / no-early-skip / rskip / no-fast-intra / no-tskip-fast / no-cu-lossless / b-intra / no-splitrd-skip / rdpenalty=0 / psy-rd=2.00 / psy-rdoq=1.00 / no-rd-refine / analysis-reuse-mode=0 / no-lossless / cbqpoffs=0 / crqpoffs=0 / rc=abr / bitrate=650 / qcomp=0.60 / qpstep=4 / stats-write=0 / stats-read=2 / cplxblur=20.0 / qblur=0.5 / ipratio=1.40 / pbratio=1.30 / aq-mode=1 / aq-strength=1.00 / cutree / zone-count=0 / no-strict-cbr / qg-size=32 / no-rc-grain / qpmax=69 / qpmin=0 / no-const-vbv / sar=255 / sar-width / : / sar-height=399:400 / overscan=0 / videoformat=5 / range=0 / colorprim=1 / transfer=1 / colormatrix=1 / chromaloc=0 / display-window=0 / max-cll=0,0 / min-luma=0 / max-luma=1023 / log2-max-poc-lsb=8 / vui-timing-info / vui-hrd-info / slices=1 / no-opt-qp-pps / no-opt-ref-list-length-pps / no-multi-pass-opt-rps / scenecut-bias=0.05 / no-opt-cu-delta-qp / no-aq-motion / no-hdr / no-hdr-opt / no-dhdr10-opt / analysis-reuse-level=5 / scale-factor=0 / refine-intra=0 / refine-inter=0 / refine-mv=0 / no-limit-sao / ctu-info=0 / no-lowpass-dct / refine-mv-type=0 / copy-pic=1
Encoded date : UTC 2018-12-28 23:45:02
Tagged date : UTC 2018-12-28 23:45:02
Color range : Limited
Color primaries : BT.709
Transfer characteristics : BT.709
Matrix coefficients : BT.709

Audio
ID : 2
Format : AAC
Format/Info : Advanced Audio Codec
Format profile : LC
Codec ID : 40
Duration : 1 h 47 min
Bit rate mode : Variable
Bit rate : 128 kb/s
Channel(s) : 2 channels
Channel positions : Front: L R
Sampling rate : 48.0 kHz
Frame rate : 46.875 FPS (1024 spf)
Compression mode : Lossy
Stream size : 98.5 MiB (16%)
Title : Stereo / Stereo
Language : English
Default : Yes
Alternate group : 1
Encoded date : UTC 2018-12-28 23:45:02
Tagged date : UTC 2018-12-28 23:45:02

Source: Rampage.2018.1080p.BluRay.AVC.TrueHD.7.1.Atmos-FGT (THANKS)

Related torrents

Torrent NameAddedSizeSeedLeechHealth
25 days ago - in Movies1.14 GB814
6 months ago - in Movies879.26 MB37
25 days ago - in Movies539.09 MB22
27 days ago - in Movies592.83 MB103
27 days ago - in Other1.49 GB43
6 months ago - in Movies733.3 MB00

Note :

Feel free to post any comments about this torrent, including links to Subtitle, samples, screenshots, or any other relevant information. Please Dont Download anything from Comments, And Links to Streaming Sites like Watch Online Rampage (2018) [720p BluRay x265] [SharkRG] Full Movie, Fmovies, 123Movies, Putlocker, Netflix, etc.

Comments (0 Comments)




Please login or create a FREE account to post comments

Latest Searches