Terminator 2 - Judgement Day 1991 Skynet DC (1080p Bluray x265 HEVC 10bit AAC 5 1 Tigole)


    Seeders : 0      Leechers : 0

Torrent Hash :13BD9DD00A9AF1153B450C38FB3D31374F93E20F
Torrent Added :1 Year+ in Other - Other
Torrent Size :3.49 GB
VPN :Download torrent Safely and Anonymously with Cheap VPN : Get VPN NOW











Note :

Please Update (Trackers Info) Before Start "Terminator 2 - Judgement Day 1991 Skynet DC (1080p Bluray x265 HEVC 10bit AAC 5 1 Tigole)" Torrent Downloading to See Updated Seeders And Leechers for Batter Torrent Download Speed.

Trackers List

Tracker NameLast CheckStatusSeedersLeechers
udp://9.rarbg.to:2770/announce15 days agosuccess00
udp://tracker.internetwarriors.net:1337/announce15 days agosuccess00
udp://open.stealth.si:80/announce15 days agosuccess00
udp://tracker.torrent.eu.org:451/announce15 days agosuccess00
udp://tracker.mg64.net:6969/announce15 days agofailed00
udp://tracker.torrent.eu.org:45115 days agosuccess00
http://tracker3.itzmx.com:8080/announce15 days agofailed00
udp://9.rarbg.me:2740/announce15 days agofailed00
udp://9.rarbg.me:2730/announce15 days agosuccess00
udp://9.rarbg.me:2770/announce15 days agofailed00
udp://tracker.zer0day.to:1337/announce15 days agofailed00
udp://tracker.vanitycore.co:6969/announce15 days agofailed00
udp://9.rarbg.to:2740/announce17 days agofailed00
udp://9.rarbg.to:2730/announce19 days agofailed00
udp://tracker.tiny-vps.com:6969/announce15 days agosuccess00
udp://tracker.pirateparty.gr:6969/announce15 days agofailed00
udp://9.rarbg.to:2720/announce15 days agosuccess00
udp://public.popcorn-tracker.org:6969/announce15 days agofailed00
udp://retracker.lanta-net.ru:2710/announce15 days agosuccess00
udp://tracker.cypherpunks.ru:6969/announce15 days agofailed00
udp://inferno.demonoid.pw:3418/announce15 days agofailed00
udp://tracker.cyberia.is:6969/announce15 days agosuccess00
udp://asnet.pw:2710/announce15 days agofailed00
udp://tracker.acg.gg:2710/announce15 days agofailed00
udp://tracker.port443.xyz:6969/announce15 days agofailed00
http://bt.acg.gg:1578/announce15 days agofailed00
udp://tracker.coppersurfer.tk:80/announce15 days agofailed00
udp://ipv4.tracker.harry.lu:80/announce15 days agosuccess00
udp://9.rarbg.me:2710/announce15 days agosuccess00
udp://exodus.desync.com:6969/announce15 days agosuccess00
udp://tracker.leechers-paradise.org:6969/announce15 days agosuccess00
http://tracker.tfile.me/announce15 days agofailed00
udp://tracker.coppersurfer.tk:6969/announce15 days agosuccess00
http://bigfoot1942.sektori.org:6969/announce15 days agofailed00
udp://shadowshq.yi.org:6969/announce15 days agofailed00
udp://eddie4.nl:6969/announce15 days agofailed00
udp://thetracker.org:80/announce15 days agofailed00
http://explodie.org:6969/announce15 days agofailed00
http://share.camoe.cn:8080/announce15 days agofailed00
udp://tracker.justseed.it:1337/announce15 days agofailed00
udp://tracker.openbittorrent.com:80/announce15 days agosuccess00
udp://ipv6.tracker.harry.lu:80/announce15 days agofailed00
udp://tracker.pomf.se:80/announce15 days agosuccess00
udp://tracker.trackerfix.com:80/announce15 days agofailed00
udp://bt.xxx-tracker.com:2710/announce15 days agofailed00
udp://glotorrents.pw:6969/announce15 days agofailed00
udp://tracker4.piratux.com:6969/announce15 days agofailed00
udp://tracker.blackunicorn.xyz:6969/announce15 days agofailed00
udp://p4p.arenabg.ch:1337/announce15 days agosuccess00
udp://p4p.arenabg.com:1337/announce15 days agosuccess00
udp://9.rarbg.to:2710/announce15 days agofailed00
udp://torrent.gresille.org:80/announce15 days agofailed00
udp://tracker.opentrackr.org:1337/announce15 days agosuccess00



Torrent File Content (14 files)


Terminator 2 - Judgement Day 1991 Skynet DC (1080p Bluray x265 HEVC 10bit AAC 5.1 Tigole)
    Featurettes
          Altered Scene 1.mkv -
36.86 MB

          Altered Scene 2.mkv -
36.61 MB

          Altered Scene 3.mkv -
26.71 MB

          Altered Scene 4.mkv -
23.67 MB

          Altered Scene 5.mkv -
12.26 MB

          Altered Scene 6.mkv -
10.21 MB

          Altered Scene 7.mkv -
8.17 MB

          Altered Scene 8.mkv -
7.35 MB

          Altered Scene 9.mkv -
6.09 MB

          Special Edition Trailer.mkv -
28.25 MB

          Theatrical Trailer 1.mkv -
24.17 MB

          Theatrical Trailer 2.mkv -
18.97 MB

          Theatrical Trailer 3.mkv -
14.86 MB

     Terminator 2 - Judgement Day 1991 Skynet DC (1080p x265 10bit Tigole).mkv -
3.24 GB



Description



 							image

Terminator 2 - Judgement Day 1991 Skynet Edition Director's Cut in 1080p, encoded with x265 in HEVC and AAC 5.1 English, with subtitles!
Encoded using the time consuming 2 pass, 10 bit color at 2500 kbps, from a Blu-ray source, for the highest quality possible.

Media InformationGeneral
Unique ID : 200959039792460102062134626385205468578 (0x972F4DA0B03B69259C834B65F5891DA2)
Complete name : Terminator 2 - Judgement Day 1991 Skynet DC (1080p x265 10bit Tigole).mkv
Format : Matroska
Format version : Version 4 / Version 2
File size : 3.24 GiB
Duration : 2h 33mn
Overall bit rate : 3 022 Kbps
Movie name : Terminator 2
Encoded date : UTC 2016-07-07 08:16:12
Writing application : mkvmerge v9.2.0 ('Photograph') 64bit
Writing library : libebml v1.3.3 + libmatroska v1.4.4

Video
ID : 1
Format : HEVC
Format/Info : High Efficiency Video Coding
Format profile : Main [email protected]@Main
Codec ID : V_MPEGH/ISO/HEVC
Duration : 2h 33mn
Bit rate : 2 480 Kbps
Width : 1 920 pixels
Height : 816 pixels
Display aspect ratio : 2.35:1
Frame rate mode : Constant
Frame rate : 23.976 (24000/1001) fps
Color space : YUV
Chroma subsampling : 4:2:0
Bit depth : 10 bits
Bits/(Pixel*Frame) : 0.066
Stream size : 2.66 GiB (82%)
Writing library : x265 1.9+200-6098ba3e0cf16b11:[Windows][GCC 5.3.0][64 bit] 10bit
Encoding settings : wpp / ctu=64 / min-cu-size=8 / max-tu-size=32 / tu-intra-depth=1 / tu-inter-depth=1 / me=1 / subme=2 / merange=57 / no-rect / no-amp / max-merge=2 / temporal-mvp / no-early-skip / recursion-skip / rdpenalty=0 / no-tskip / no-tskip-fast / strong-intra-smoothing / no-lossless / no-cu-lossless / no-constrained-intra / no-fast-intra / open-gop / no-temporal-layers / interlace=0 / keyint=250 / min-keyint=23 / scenecut=40 / rc-lookahead=20 / lookahead-slices=5 / bframes=4 / bframe-bias=0 / b-adapt=2 / ref=3 / limit-refs=3 / no-limit-modes / weightp / no-weightb / aq-mode=1 / qg-size=32 / aq-strength=1.00 / cbqpoffs=0 / crqpoffs=0 / rd=3 / psy-rd=2.00 / rdoq-level=0 / psy-rdoq=0.00 / no-rd-refine / signhide / deblock=0:0 / sao / no-sao-non-deblock / b-pyramid / cutree / no-intra-refresh / rc=2 / pass / bitrate=2479 / qcomp=0.60 / qpmin=0 / qpmax=51 / qpstep=4 / cplxblur=20.0 / qblur=0.5 / ipratio=1.40 / pbratio=1.30
Default : Yes
Forced : No

Audio
ID : 2
Format : AAC
Format/Info : Advanced Audio Codec
Format profile : LC
Codec ID : A_AAC
Duration : 2h 33mn
Bit rate : 339 Kbps
Channel(s) : 6 channels
Channel positions : Front: L C R, Side: L R, LFE
Sampling rate : 48.0 KHz
Frame rate : 46.875 fps (1024 spf)
Compression mode : Lossy
Delay relative to video : 20ms
Stream size : 372 MiB (11%)
Language : English
Default : No
Forced : No

Text #1
ID : 3
Format : VobSub
Muxing mode : zlib
Codec ID : S_VOBSUB
Codec ID/Info : Picture based subtitle format used on DVDs
Duration : 2h 27mn
Bit rate : 4 977 bps
Count of elements : 1548
Stream size : 5.24 MiB (0%)
Language : English
Default : No
Forced : No

Text #2
ID : 4
Format : VobSub
Muxing mode : zlib
Codec ID : S_VOBSUB
Codec ID/Info : Picture based subtitle format used on DVDs
Duration : 2h 27mn
Bit rate : 4 136 bps
Count of elements : 1423
Stream size : 4.36 MiB (0%)
Language : French
Default : No
Forced : No

Text #3
ID : 5
Format : VobSub
Muxing mode : zlib
Codec ID : S_VOBSUB
Codec ID/Info : Picture based subtitle format used on DVDs
Duration : 2h 27mn
Bit rate : 4 453 bps
Count of elements : 1436
Stream size : 4.70 MiB (0%)
Language : German
Default : No
Forced : No

Text #4
ID : 6
Format : VobSub
Muxing mode : zlib
Codec ID : S_VOBSUB
Codec ID/Info : Picture based subtitle format used on DVDs
Duration : 2h 27mn
Bit rate : 3 870 bps
Count of elements : 1418
Stream size : 4.08 MiB (0%)
Language : Turkish
Default : No
Forced : No

Text #5
ID : 7
Format : VobSub
Muxing mode : zlib
Codec ID : S_VOBSUB
Codec ID/Info : Picture based subtitle format used on DVDs
Duration : 2h 28mn
Bit rate : 20.8 Kbps
Count of elements : 3472
Stream size : 22.1 MiB (1%)
Language : English
Default : No
Forced : No

Text #6
ID : 8
Format : VobSub
Muxing mode : zlib
Codec ID : S_VOBSUB
Codec ID/Info : Picture based subtitle format used on DVDs
Duration : 2h 28mn
Bit rate : 19.1 Kbps
Count of elements : 3460
Stream size : 20.3 MiB (1%)
Language : French
Default : No
Forced : No

Text #7
ID : 9
Format : VobSub
Muxing mode : zlib
Codec ID : S_VOBSUB
Codec ID/Info : Picture based subtitle format used on DVDs
Duration : 2h 28mn
Bit rate : 19.8 Kbps
Count of elements : 3460
Stream size : 21.0 MiB (1%)
Language : German
Default : No
Forced : No

Text #8
ID : 10
Format : VobSub
Muxing mode : zlib
Codec ID : S_VOBSUB
Codec ID/Info : Picture based subtitle format used on DVDs
Duration : 2h 32mn
Bit rate : 18.5 Kbps
Count of elements : 3730
Stream size : 20.2 MiB (1%)
Language : English
Default : No
Forced : No

Text #9
ID : 11
Format : VobSub
Muxing mode : zlib
Codec ID : S_VOBSUB
Codec ID/Info : Picture based subtitle format used on DVDs
Duration : 2h 32mn
Bit rate : 15.7 Kbps
Count of elements : 3720
Stream size : 17.2 MiB (1%)
Language : French
Default : No
Forced : No

Text #10
ID : 12
Format : VobSub
Muxing mode : zlib
Codec ID : S_VOBSUB
Codec ID/Info : Picture based subtitle format used on DVDs
Duration : 2h 32mn
Bit rate : 17.8 Kbps
Count of elements : 3724
Stream size : 19.5 MiB (1%)
Language : German
Default : No
Forced : No

Text #11
ID : 13
Format : VobSub
Muxing mode : zlib
Codec ID : S_VOBSUB
Codec ID/Info : Picture based subtitle format used on DVDs
Duration : 2h 33mn
Bit rate : 69.3 Kbps
Count of elements : 4700
Stream size : 76.1 MiB (2%)
Language : English
Default : No
Forced : No

Text #12
ID : 14
Format : VobSub
Muxing mode : zlib
Codec ID : S_VOBSUB
Codec ID/Info : Picture based subtitle format used on DVDs
Duration : 1h 34mn
Bit rate : 845 bps
Count of elements : 186
Stream size : 584 KiB (0%)
Language : French
Default : No
Forced : No

Text #13
ID : 15
Format : VobSub
Muxing mode : zlib
Codec ID : S_VOBSUB
Codec ID/Info : Picture based subtitle format used on DVDs
Duration : 2h 28mn
Bit rate : 3 472 bps
Count of elements : 1765
Stream size : 3.69 MiB (0%)
Language : English
Default : No
Forced : No

Menu
00:00:00.000 : en:Chapter 01
00:00:51.760 : en:Chapter 02
00:03:38.218 : en:Chapter 03
00:05:36.836 : en:Chapter 04
00:06:48.241 : en:Chapter 05
00:09:11.008 : en:Chapter 06
00:10:35.551 : en:Chapter 07
00:12:31.500 : en:Chapter 08
00:13:40.611 : en:Chapter 09
00:15:31.722 : en:Chapter 10
00:16:33.909 : en:Chapter 11
00:17:41.310 : en:Chapter 12
00:19:12.151 : en:Chapter 13
00:22:29.222 : en:Chapter 14
00:25:56.221 : en:Chapter 15
00:27:29.981 : en:Chapter 16
00:28:53.064 : en:Chapter 17
00:29:49.662 : en:Chapter 18
00:31:24.048 : en:Chapter 19
00:33:59.579 : en:Chapter 20
00:35:12.235 : en:Chapter 21
00:38:51.329 : en:Chapter 22
00:41:35.409 : en:Chapter 23
00:44:17.154 : en:Chapter 24
00:44:47.017 : en:Chapter 25
00:46:01.383 : en:Chapter 26
00:49:47.943 : en:Chapter 27
00:53:00.427 : en:Chapter 28
00:54:43.989 : en:Chapter 29
00:56:23.546 : en:Chapter 30
00:57:06.005 : en:Chapter 31
00:58:16.993 : en:Chapter 32
01:00:23.536 : en:Chapter 33
01:01:51.207 : en:Chapter 34
01:06:25.606 : en:Chapter 35
01:08:00.868 : en:Chapter 36
01:08:42.785 : en:Chapter 37
01:10:03.657 : en:Chapter 38
01:13:29.905 : en:Chapter 39
01:14:10.362 : en:Chapter 40
01:14:58.076 : en:Chapter 41
01:16:26.206 : en:Chapter 42
01:18:50.517 : en:Chapter 43
01:21:11.032 : en:Chapter 44
01:23:40.598 : en:Chapter 45
01:26:27.140 : en:Chapter 46
01:30:45.398 : en:Chapter 47
01:33:02.368 : en:Chapter 48
01:33:34.775 : en:Chapter 49
01:35:16.752 : en:Chapter 50
01:41:34.755 : en:Chapter 51
01:44:24.132 : en:Chapter 52
01:46:26.630 : en:Chapter 53
01:48:26.917 : en:Chapter 54
01:49:06.831 : en:Chapter 55
01:49:57.882 : en:Chapter 56
01:52:06.136 : en:Chapter 57
01:53:55.328 : en:Chapter 58
01:54:27.861 : en:Chapter 59
01:56:50.003 : en:Chapter 60
01:58:18.007 : en:Chapter 61
01:59:58.441 : en:Chapter 62
02:01:13.057 : en:Chapter 63
02:02:12.533 : en:Chapter 64
02:04:50.608 : en:Chapter 65
02:08:53.350 : en:Chapter 66
02:12:22.476 : en:Chapter 67
02:13:05.018 : en:Chapter 68
02:13:36.174 : en:Chapter 69
02:14:44.618 : en:Chapter 70
02:15:20.028 : en:Chapter 71
02:17:16.269 : en:Chapter 72
02:19:16.264 : en:Chapter 73
02:19:48.922 : en:Chapter 74
02:20:27.752 : en:Chapter 75
02:21:55.131 : en:Chapter 76
02:24:10.433 : en:Chapter 77
02:27:59.620 : en:Chapter 78
02:28:42.163 : en:Chapter 79
02:32:43.612 : en:Chapter 80

Source InformationUnique ID : 141736746772319291567284724151641274260 (0x6AA18125CA507094B9A673E50AE97794)
Complete name : Terminator_2_t03_REMUX.mkv
File size : 24.2 GiB
Duration : 2h 33mn
Overall bit rate : 22.6 Mbps


Related torrents

Torrent NameAddedSizeSeedLeechHealth
1 Year+ - in Other1.93 GB01
1 Year+ - in Other1.93 GB11
8 months ago - in Movies7.51 GB169
1 Year+ - in Other3.15 GB00
1 Year+ - in Movies6.63 GB42

Note :

Feel free to post any comments about this torrent, including links to Subtitle, samples, screenshots, or any other relevant information. Watch Terminator 2 - Judgement Day 1991 Skynet DC (1080p Bluray x265 HEVC 10bit AAC 5 1 Tigole) Full Movie Online Free, Like 123Movies, FMovies, Putlocker, Netflix or Direct Download Torrent Terminator 2 - Judgement Day 1991 Skynet DC (1080p Bluray x265 HEVC 10bit AAC 5 1 Tigole) via Magnet Download Link.

Comments (0 Comments)




Please login or create a FREE account to post comments

People Searches