The Hollow Crown S02E01 Henry VI Part 1 720p iP WEBRip AAC2 0 H264-RTN[rartv]


    Seeders : 22      Leechers : 20

Torrent Hash :F472925D3F7ECAED3625AD71325EC72773C6C6DA
Torrent Added :1 Year+ in TV shows
Torrent Size :1.86 GB
VPN :Download torrents Safely and Anonymously with Cheap VPN : Get VPN NOW








Cheap VPN

Note :

Please Update (Trackers Info) Before Start "The Hollow Crown S02E01 Henry VI Part 1 720p iP WEBRip AAC2 0 H264-RTN[rartv]" Torrent Downloading to See Updated Seeders And Leechers for Batter Torrent Download Speed.

Trackers List

Tracker NameLast CheckStatusSeedersLeechers
http://tracker.trackerfix.com/announce1 Year+success2220
udp://9.rarbg.me:2710/announce1 Year+success1212
udp://9.rarbg.to:2710/announce1 Year+success1212
udp://tracker.opentrackr.org:1337/announce1 Year+success116
http://explodie.org:6969/announce1 Year+success00
udp://tracker.internetwarriors.net:1337/announce1 Year+success00
udp://torrent.gresille.org:80/announce1 Year+success00
udp://p4p.arenabg.ch:1337/announce1 Year+success00
udp://tracker.blackunicorn.xyz:6969/announce1 Year+failed00
udp://tracker4.piratux.com:6969/announce1 Year+failed00
udp://glotorrents.pw:6969/announce1 Year+failed00
udp://tracker.trackerfix.com:80/announce1 Year+failed00
udp://tracker.pomf.se:80/announce1 Year+failed00
http://tracker.publicbt.com/announce1 Year+failed00
udp://eddie4.nl:6969/announce1 Year+success00
http://bigfoot1942.sektori.org:6969/announce1 Year+success00
udp://tracker.coppersurfer.tk:6969/announce1 Year+success02
http://tracker.tfile.me/announce1 Year+success00
udp://tracker.leechers-paradise.org:6969/announce1 Year+success00
udp://tracker.openbittorrent.com:80/announce1 Year+failed00
udp://tracker.publicbt.com:80/announce1 Year+failed00



Torrent File Content (2 files)


The.Hollow.Crown.S02E01.Henry.VI.Part.1.720p.iP.WEBRip.AAC2.0.H264-RTN[rarbg]
     RARBG.com.txt -
34 bytes

     The.Hollow.Crown.S02E01.Henry.VI.Part.1.720p.iP.WEBRip.AAC2.0.H.264-RTN.mkv -
1.86 GB



Description



 							
https://rarbg.to
The.Hollow.Crown.S02E01.Henry.VI.Part.1.720p.iP.WEBRip.AAC2.0.H264-RTN[rartv]

image
Screens :

image
Mediainfo :

Video
ID : 1
Format : AVC
Format/Info : Advanced Video Codec
Format profile : [email protected]
Format settings, CABAC : Yes
Format settings, ReFrames : 2 frames
Codec ID : V_MPEG4/ISO/AVC
Duration : 1h 51mn
Bit rate mode : Variable
Bit rate : 2 295 Kbps
Maximum bit rate : 3 500 Kbps
Width : 1 280 pixels
Height : 720 pixels
Display aspect ratio : 16:9
Frame rate mode : Constant
Frame rate : 25.000 fps
Color space : YUV
Chroma subsampling : 4:2:0
Bit depth : 8 bits
Scan type : Progressive
Bits/(Pixel*Frame) : 0.100
Stream size : 1.79 GiB (96%)
Language : English
Default : Yes
Forced : No

Audio
ID : 2
Format : AAC
Format/Info : Advanced Audio Codec
Format profile : LC
Codec ID : A_AAC
Duration : 1h 51mn
Bit rate : 93.5 Kbps
Channel(s) : 2 channels
Channel positions : Front: L R
Sampling rate : 48.0 KHz
Frame rate : 46.875 fps (1024 spf)
Compression mode : Lossy
Delay relative to video : -40ms
Stream size : 74.5 MiB (4%)
Language : English
Default : Yes
Forced : No

Text
ID : 3
Format : UTF-8
Codec ID : S_TEXT/UTF8
Codec ID/Info : UTF-8 Plain Text
Duration : 1h 50mn
Bit rate : 61 bps
Count of elements : 1503
Stream size : 49.6 KiB (0%)
Language : English
Default : Yes
Forced : No


Related torrents

Torrent NameAddedSizeSeedLeechHealth
1 Year+ - in TV shows1.89 GB00
Verified torrent
1 Year+ - in TV shows1.88 GB84
1 Year+ - in TV shows697.05 MB00
1 Year+ - in TV shows2.55 GB00
Verified torrent
1 Year+ - in TV shows692.08 MB50

Note :

Feel free to post any comments about this torrent, including links to Subtitle, samples, screenshots, or any other relevant information. Watch The Hollow Crown S02E01 Henry VI Part 1 720p iP WEBRip AAC2 0 H264-RTN[rartv] Full Movie Online Free, Like 123Movies, FMovies, Putlocker, Netflix or Direct Download Torrent The Hollow Crown S02E01 Henry VI Part 1 720p iP WEBRip AAC2 0 H264-RTN[rartv] via Magnet Download Link.

Comments (0 Comments)




Please login or create a FREE account to post comments

People Searches