The Loud House S01E06 720p HDTV x264-W4F[rartv]


    Seeders : 0      Leechers : 0

Torrent Hash :7A653D796B00D8787EDF97B344B1E8006F98BB8B
Torrent Added :1 Year+ in TV shows
Torrent Size :523.15 MB
VPN :Download torrent Safely and Anonymously with Cheap VPN : Get VPN NOW


The Loud House S01E06 720p HDTV x264-W4F[rartv]
Fast And Direct Download Safely And Anonymously!










Note :

Please Update (Trackers Info) Before Start "The Loud House S01E06 720p HDTV x264-W4F[rartv]" Torrent Downloading to See Updated Seeders And Leechers for Batter Torrent Download Speed.

Trackers List

Tracker NameLast CheckStatusSeedersLeechers
http://explodie.org:6969/announce1 Year+success00
udp://tracker.internetwarriors.net:1337/announce1 Year+success00
udp://tracker.opentrackr.org:1337/announce1 Year+failed00
udp://torrent.gresille.org:80/announce1 Year+success00
udp://9.rarbg.to:2710/announce1 Year+success00
udp://p4p.arenabg.ch:1337/announce1 Year+success00
udp://tracker.blackunicorn.xyz:6969/announce1 Year+success00
udp://tracker4.piratux.com:6969/announce1 Year+success00
udp://glotorrents.pw:6969/announce1 Year+success00
udp://tracker.trackerfix.com:80/announce1 Year+success00
udp://tracker.pomf.se:80/announce1 Year+success00
http://tracker.publicbt.com/announce1 Year+success00
udp://eddie4.nl:6969/announce1 Year+success00
http://bigfoot1942.sektori.org:6969/announce1 Year+success00
udp://tracker.coppersurfer.tk:6969/announce1 Year+success00
http://tracker.tfile.me/announce1 Year+success00
udp://tracker.leechers-paradise.org:6969/announce1 Year+success00
http://tracker.trackerfix.com/announce1 Year+success00
udp://9.rarbg.me:2710/announce1 Year+success00
udp://tracker.openbittorrent.com:80/announce1 Year+success00
udp://tracker.publicbt.com:80/announce1 Year+success00



Torrent File Content (3 files)


The.Loud.House.S01E06.720p.HDTV.x264-W4F[rarbg]
     RARBG.com.txt -
34 bytes

     the.loud.house.s01e06.720p.hdtv.x264-w4f.mkv -
523.14 MB

     the.loud.house.s01e06.720p.hdtv.x264-w4f.nfo -
5.98 KB



Description



 							
https://rarbg.to
The.Loud.House.S01E06.720p.HDTV.x264-W4F[rartv]

image
Screens :

image
Mediainfo :

Video
ID : 1
Format : AVC
Format/Info : Advanced Video Codec
Format profile : [email protected]
Format settings, CABAC : Yes
Format settings, ReFrames : 9 frames
Codec ID : V_MPEG4/ISO/AVC
Duration : 22mn 0s
Bit rate : 2 937 Kbps
Width : 1 280 pixels
Height : 720 pixels
Display aspect ratio : 16:9
Frame rate mode : Constant
Frame rate : 23.976 (24000/1001) fps
Color space : YUV
Chroma subsampling : 4:2:0
Bit depth : 8 bits
Scan type : Progressive
Bits/(Pixel*Frame) : 0.133
Stream size : 462 MiB (88%)
Writing library : x264 core 148 r2694 3b70645
Encoding settings : cabac=1 / ref=9 / deblock=1:1:1 / analyse=0x3:0x113 / me=umh / subme=8 / psy=1 / psy_rd=0.40:0.00 / mixed_ref=1 / me_range=16 / chroma_me=1 / trellis=1 / 8x8dct=1 / cqm=0 / deadzone=21,11 / fast_pskip=1 / chroma_qp_offset=-2 / threads=12 / lookahead_threads=3 / sliced_threads=0 / nr=0 / decimate=1 / interlaced=0 / bluray_compat=0 / constrained_intra=0 / bframes=5 / b_pyramid=2 / b_adapt=2 / b_bias=0 / direct=3 / weightb=1 / open_gop=0 / weightp=2 / keyint=250 / keyint_min=25 / scenecut=40 / intra_refresh=0 / rc_lookahead=50 / rc=crf / mbtree=1 / crf=18.0 / qcomp=0.60 / qpmin=0 / qpmax=69 / qpstep=4 / ip_ratio=1.40 / aq=1:0.60
Default : Yes
Forced : No

Audio
ID : 2
Format : AC-3
Format/Info : Audio Coding 3
Mode extension : CM (complete main)
Format settings, Endianness : Big
Codec ID : A_AC3
Duration : 22mn 0s
Bit rate mode : Constant
Bit rate : 384 Kbps
Channel(s) : 6 channels
Channel positions : Front: L C R, Side: L R, LFE
Sampling rate : 48.0 KHz
Frame rate : 31.250 fps (1536 spf)
Compression mode : Lossy
Stream size : 60.5 MiB (12%)
Language : English
Default : Yes
Forced : No

Text
ID : 3
Format : UTF-8
Codec ID : S_TEXT/UTF8
Codec ID/Info : UTF-8 Plain Text
Duration : 21mn 58s
Bit rate : 138 bps
Count of elements : 559
Stream size : 22.2 KiB (0%)
Language : English
Default : No
Forced : No


Related torrents

Torrent NameAddedSizeSeedLeechHealth
1 Year+ - in TV shows328.14 MB00
1 Year+ - in TV shows357.41 MB124
1 Year+ - in TV shows319.77 MB00
1 Year+ - in TV shows268.7 MB00
1 Year+ - in TV shows262.53 MB00

Note :

Feel free to post any comments about this torrent, including links to Subtitle, samples, screenshots, or any other relevant information. Watch The Loud House S01E06 720p HDTV x264-W4F[rartv] Full Movie Online Free, Like 123Movies, FMovies, Putlocker, Netflix or Direct Download Torrent The Loud House S01E06 720p HDTV x264-W4F[rartv] via Magnet Download Link.

Comments (0 Comments)




Please login or create a FREE account to post comments

People Searches