Tonightsgirlfriend Kleio Valentien mp4 6 june 2014


    Seeders : 28      Leechers : 38

Hash :38A2E53EF46E2C0DCDEA304452F68BA2B7713FB3
Added :1 Year+ in Other - Other
Size :879.11 MB
Stream :Watch FREE Full Movies @ Movie4u


Tonightsgirlfriend Kleio Valentien mp4 6 june 2014
Download your torrents safely! And Anonymously!








Please Turn on your VPN before Downloading Torrents.
Your IP Address is 3.227.235.220.   And Location United States,
Your Internet Service Provider and Government can track your Online Activity!  Protect yourself from expensive lawsuits and fines NOW!
We Strongly Recommend Using Very Cheap VPN for P2P to Anonymize your Torrenting.

Note :

Please Update (Trackers Info) Before Start Torrents Downloading to See Updated Seeders And Leechers for Batter Download Speed.

Trackers List

Tracker NameLast CheckStatusSeedersLeechers



Torrent File Content (4 files)


Tonightsgirlfriend.Kleio.Valentien.mp4.6.june.2014
     Kleio.Valentien.mp4 -
878.87 MB

     RARBG.com.txt -
33 bytes

     poster.jpg -
54.22 KB

     screens.jpg -
190.36 KB



Description



 							Screens:

http://imgchili.net/show/51066/51066820_38a2e53ef46e2c0dcdea.jpg

http://imgserve.net/img-5392a501073c1.html

General
Complete name /Kleio.Valentien.mp4
Format : MPEG-4
Format profile : Base Media
Codec ID : isom
File size : 879 MiB
Duration : 44mn 53s
Overall bit rate : 2 737 Kbps
Writing application : Lavf54.29.104

Video
ID : 1
Format : AVC
Format/Info : Advanced Video Codec
Format profile : [email protected]
Format settings, CABAC : Yes
Format settings, ReFrames : 4 frames
Codec ID : avc1
Codec ID/Info : Advanced Video Coding
Duration : 44mn 53s
Bit rate : 2 601 Kbps
Width : 854 pixels
Height : 480 pixels
Display aspect ratio : 16:9
Frame rate mode : Constant
Frame rate : 30.000 fps
Color space : YUV
Chroma subsampling : 4:2:0
Bit depth : 8 bits
Scan type : Progressive
Bits/(Pixel*Frame) : 0.212
Stream size : 835 MiB (95%)
Writing library : x264 core 136
Encoding settings : cabac=1 / ref=4 / deblock=1:0:0 / analyse=0x3:0x113 / me=umh / subme=7 / psy=1 / psy_rd=0.00:0.00 / mixed_ref=1 / me_range=16 / chroma_me=1 / trellis=1 / 8x8dct=1 / cqm=0 / deadzone=21,11 / fast_pskip=0 / chroma_qp_offset=0 / threads=48 / lookahead_threads=3 / sliced_threads=0 / nr=0 / decimate=1 / interlaced=0 / bluray_compat=0 / constrained_intra=0 / bframes=16 / b_pyramid=2 / b_adapt=1 / b_bias=0 / direct=1 / weightb=1 / open_gop=0 / weightp=2 / keyint=300 / keyint_min=25 / scenecut=40 / intra_refresh=0 / rc_lookahead=40 / rc=2pass / mbtree=1 / bitrate=2601 / ratetol=1.0 / qcomp=0.50 / qpmin=8 / qpmax=51 / qpstep=4 / cplxblur=20.0 / qblur=0.5 / ip_ratio=1.41 / aq=1:1.00
Language : English

Audio
ID : 2
Format : AAC
Format/Info : Advanced Audio Codec
Format profile : LC
Codec ID : 40
Duration : 44mn 53s
Duration_LastFrame : -8ms
Bit rate mode : Constant
Bit rate : 128 Kbps
Channel(s) : 2 channels
Channel positions : Front: L R
Sampling rate : 44.1 KHz
Compression mode : Lossy
Delay relative to video : -2ms
Stream size : 41.0 MiB (5%)
Language : English

Related torrents

Torrent NameAddedSizeSeedLeechHealth
1 Year+ - in Other878.87 MB00
1 Year+ - in Other879.11 MB00
1 Year+ - in Other564.66 MB00
1 Year+ - in Other878.87 MB00
1 Year+ - in Other683.87 MB10

Note :

Feel free to post any comments about this torrent, including links to Subtitle, samples, screenshots, or any other relevant information. Watch Tonightsgirlfriend Kleio Valentien mp4 6 june 2014 Free Movies Online, Like 123Movies, Fmovies, Putlockers, Popcorntime, Netflix or Direct Download Tonightsgirlfriend Kleio Valentien mp4 6 june 2014 via Magnet Link.

Comments (0 Comments)




Please login or create a FREE account to post comments

Latest Searches