White Sun of the Desert (1970) [BDRip 1080p x264 by alE13 AC3][Lektor i Napisy PL Eng][Rus]


    Seeders : 7      Leechers : 7

Torrent Hash :C314D2215A329A7477CBE1FB94D4D3374F3B1794
Torrent Added :1 Year+ in Movies - Movies
Torrent Size :7.89 GB
VPN :Download torrent Safely and Anonymously with Cheap VPN : Get VPN NOW











Note :

Please Update (Trackers Info) Before Start "White Sun of the Desert (1970) [BDRip 1080p x264 by alE13 AC3][Lektor i Napisy PL Eng][Rus]" Torrent Downloading to See Updated Seeders And Leechers for Batter Torrent Download Speed.

Trackers List

Tracker NameLast CheckStatusSeedersLeechers
udp://eddie4.nl:6969/announce1 Year+success77
udp://tracker.opentrackr.org:1337/announce1 Year+success76
http://tracker.opentrackr.org/announce1 Year+success76
udp://tracker.pirateparty.gr:6969/announce1 Year+success77
udp://tracker.coppersurfer.tk:6969/announce1 Year+success77
udp://tracker.leechers-paradise.org:6969/announce1 Year+success77
udp://inferno.demonoid.pw:3391/announce1 Year+success57
http://tracker.torrentyorg.pl/announce1 Year+success31
udp://public.popcorn-tracker.org:6969/announce1 Year+success00
http://tracker.devil-torrents.pl/announce1 Year+success00
udp://tracker.vanitycore.co:6969/announce1 Year+success00
udp://p4p.arenabg.ch:1337/announce1 Year+success00
udp://tracker.zer0day.to:1337/announce1 Year+success00
udp://tracker.mgtracker.org:2710/announce1 Year+success00
udp://mgtracker.org:6969/announce1 Year+success00
udp://tracker.sktorrent.net:6969/announce1 Year+success00
udp://tracker.x4w.co:6969/announce1 Year+success00
udp://tracker.internetwarriors.net:1337/announce1 Year+success00
udp://tracker.mg64.net:6881/announce1 Year+success00
udp://asnet.pw:2710/announce1 Year+success00
udp://9.rarbg.to:2710/announce1 Year+success00
udp://ipv4.tracker.harry.lu:80/announce1 Year+success00
udp://tracker.blackunicorn.xyz:6969/announce1 Year+success00
udp://tracker4.piratux.com:6969/announce1 Year+success00
udp://glotorrents.pw:6969/announce1 Year+success00
udp://tracker.trackerfix.com:80/announce1 Year+success00
udp://tracker.pomf.se:80/announce1 Year+success00
http://tracker2.wasabii.com.tw:6969/announce1 Year+success00
udp://explodie.org:6969/announce1 Year+success00
udp://tracker.ilibr.org:80/announce1 Year+success00
udp://castradio.net:6969/announce1 Year+success00
http://announce.torrentsmd.com:6969/announce1 Year+success00
http://bigfoot1942.sektori.org:6969/announce1 Year+success00
http://tracker.trackerfix.com/announce1 Year+success00
udp://9.rarbg.me:2710/announce1 Year+success00



Torrent File Content (15 files)


White Sun of the Desert (1970)-alE13
    info
          2.jpg -
363.09 KB

          Cover.jpg -
228.99 KB

          Nostalgie11.jpg -
185.84 KB

          Torrent Downloaded From devil-torrents.txt -
61 bytes

          Torrent downloaded from demonoid.pw.txt -
46 bytes

          Torrent Downloaded From ex-torrents-org.txt -
44 bytes

          Torrent Downloaded From immortaltorrent.txt -
44 bytes

          Torrent Downloaded From super-torrent.txt -
42 bytes

          Torrent Downloaded From 1337x.to.txt -
32 bytes

    Subtitles
          White Sun of the Desert (1970)-alE13.rar -
34.74 KB

     White Sun of the Desert (1970)-alE13.mkv -
7.83 GB

     Sample.mkv -
50.75 MB

     Cover.jpg -
228.99 KB

     txt.jpg -
62.15 KB

     poster.jpg -
46.74 KB



Description



Movies : Western : Blu-ray Rip : Russian


http://www.imdb.com/title/tt0066565/
http://www.filmweb.pl/film/Bia%C5%82e+s%C5%82o%C5%84ce+pustyni-1969-114695

Plik zawiera Sample.

reżyseria: Vladimir Motyl
scenariusz: Rustam Ibragimbekov, Valentin Ezhov
gatunek: Western, Komedia, Przygodowy
produkcja: ZSRR
premiera: 30-03-1970
muzyka: Isaak Shvarts
zdjęcia: Eduard Rozovsky
czas: 01:23:32

opis:

At the end of the Russian Civil War, Red Army soldier Fyodor Sukhov is ordered to guard the harem of a Caspian Sea guerrilla leader.

Film opowiada o przygodach żołnierza Armii Czerwonej, Suchowa, powracającego z wojny. Droga wiedzie przez pustynię. Jego niezwykłe
przygody obejmują uwolnienie kobiet z haremu Abdulli oraz walkę z nim i jego towarzyszami. Świetne kino przesycone niezwykłą
bajkowością, wspaniałymi zdjęciami, doskonałą muzyką; całość okraszona dodatkowo swoistym humorem.






obsada:

Anatoliy Kuznetsov, Spartak Mishulin, Kakhi Kavsadze

dane techniczne:

White Sun of the Desert (1970)-alE13.mkv
Format : Matroska
Format version : Version 4 / Version 2
File size : 7.83 GiB
Duration : 1 h 23 min
Overall bit rate : 13.4 Mb/s
Movie name : White Sun of the Desert (1970)-alE13
Encoded date : UTC 2018-03-24 07:16:27
Writing application : mkvmerge v8.1.0 ('Psychedelic Postcard') 64bit
Writing library : libebml v1.3.1 + libmatroska v1.4.2
Cover : Yes
Attachments : Cover.jpg

Video
ID : 1
Format : AVC
Format/Info : Advanced Video Codec
Format profile : [email protected]
Format settings, CABAC : Yes
Format settings, ReFrames : 2 frames
Codec ID : V_MPEG4/ISO/AVC
Duration : 1 h 23 min
Bit rate : 12.5 Mb/s
Width : 1 480 pixels
Height : 1 080 pixels
Display aspect ratio : 1.370
Frame rate mode : Constant
Frame rate : 23.976 (24000/1001) FPS
Color space : YUV
Chroma subsampling : 4:2:0
Bit depth : 8 bits
Scan type : Progressive
Bits/(Pixel*Frame) : 0.327
Stream size : 7.31 GiB (93%)
Title : White Sun of the Desert (1970)-alE13
Writing library : x264 core 142
Default : Yes
Forced : No
Color range : Limited
Color primaries : BT.709
Transfer characteristics : BT.709
Matrix coefficients : BT.709

Audio #1
ID : 2
Format : AC-3
Format/Info : Audio Coding 3
Mode extension : CM (complete main)
Format settings, Endianness : Big
Codec ID : A_AC3
Duration : 1 h 23 min
Bit rate mode : Constant
Bit rate : 640 kb/s
Channel(s) : 6 channels
Channel positions : Front: L C R, Side: L R, LFE
Sampling rate : 48.0 kHz
Frame rate : 31.250 FPS (1536 spf)
Compression mode : Lossy
Stream size : 382 MiB (5%)
Title : White Sun of the Desert (1970)-alE13_AC3
Language : Russian
Default : No
Forced : No

Audio #2
ID : 3
Format : AC-3
Format/Info : Audio Coding 3
Mode extension : CM (complete main)
Format settings, Endianness : Big
Codec ID : A_AC3
Duration : 1 h 23 min
Bit rate mode : Constant
Bit rate : 256 kb/s
Channel(s) : 2 channels
Channel positions : Front: L R
Sampling rate : 44.1 kHz
Frame rate : 28.711 FPS (1536 spf)
Compression mode : Lossy
Delay relative to video : 100 ms
Stream size : 153 MiB (2%)
Title : White Sun of the Desert (1970)-alE13_AC3
Language : Polish
Default : Yes
Forced : No

Menu
00:00:00.000 : en:Chapter 01
00:07:01.879 : en:Chapter 02
00:15:34.099 : en:Chapter 03
00:24:16.705 : en:Chapter 04
00:32:32.700 : en:Chapter 05
00:41:02.710 : en:Chapter 06
00:44:27.552 : en:Chapter 07
00:50:30.582 : en:Chapter 08
00:55:03.229 : en:Chapter 09
01:00:54.641 : en:Chapter 10
01:07:45.718 : en:Chapter 11
01:15:21.840 : en:Chapter 12

Related torrents

Torrent NameAddedSizeSeedLeechHealth
1 Year+ - in Movies8.78 GB66
1 Year+ - in Movies7.93 GB21
1 Year+ - in Movies7.72 GB00
1 Year+ - in Movies7.76 GB01
1 Year+ - in Movies8.07 GB33

Note :

Feel free to post any comments about this torrent, including links to Subtitle, samples, screenshots, or any other relevant information. Watch White Sun of the Desert (1970) [BDRip 1080p x264 by alE13 AC3][Lektor i Napisy PL Eng][Rus] Full Movie Online Free, Like 123Movies, FMovies, Putlocker, Netflix or Direct Download Torrent White Sun of the Desert (1970) [BDRip 1080p x264 by alE13 AC3][Lektor i Napisy PL Eng][Rus] via Magnet Download Link.

Comments (0 Comments)




Please login or create a FREE account to post comments

People Searches